extratorrent - A Fan Made Alternative Login   |   Register
Important Information
Registrations are open now
-------------------------------------

Please click here to register with Extratorrent2 to recieve latest updates, add bookmarks and to post comments.

Friends
Friends

1) ProxyFix

Extratorrent2 > Categories > TV > Game of Thrones 2011 Season 7 S07 (1080p Bluray x265 HEVC 10bit AAC 7.1 Tigole) [UTR] torrent


Browse TV torrents

Game of Thrones 2011 Season 7 S07 (1080p Bluray x265 HEVC 10bit AAC 7.1 Tigole) [UTR] torrent


Download torrent: Download Game of Thrones 2011 Season 7 S07 (1080p Bluray x265 HEVC 10bit AAC 7.1 Tigole) [UTR] torrent Magnet link Bookmark Torrent: Game of Thrones 2011 Season 7 S07 (1080p Bluray x265 HEVC 10bit AAC 7.1 Tigole) [UTR]   Game of Thrones 2011 Season 7 S07 (1080p Bluray x265 HEVC 10bit AAC 7.1 Tigole) [UTR] torrent
Info hash: 2CD50AA593D635E63428F658923FB2A159164ED7
Category: Categories > TV
Trackers:
View all torrent trackers >
Health:
 seeds: 38 ,  leechers: 56 |  Update >
Torrent language: English English
Total Size: 14.5 GB
Files List:
18    View torrent files >
Uploader:
UTRplus
Torrent added: December 9, 2017, 4:49 pm
Tags: adventure, drama, fantasy
Users rating: ---, not rated. please login to rate.

Download Game of Thrones 2011 Season 7 S07 (1080p Bluray x265 HEVC 10bit AAC 7.1 Tigole) [UTR] torrent



Torrent Description



Game of Thrones 2011 Season 7 in 1080p, encoded with x265 in HEVC and AAC 7.1 English, with subtitles!
Encoded using the time consuming 2 pass, 10 bit color at 3000-4250 kbps, from a Blu-ray source, for the highest quality possible.



Media Information


Code:

General
Format : Matroska
Format version : Version 4 / Version 2
File size : 1.63 GiB
Duration : 58 min 40 s
Overall bit rate : 3 975 kb/s
Encoded date : UTC 2017-12-05 11:29:30
Writing application : mkvmerge v14.0.0 ('Flow') 64bit
Writing library : libebml v1.3.4 + libmatroska v1.4.5

Video
ID : 1
Format : HEVC
Format/Info : High Efficiency Video Coding
Format profile : Main @Main
Codec ID : V_MPEGH/ISO/HEVC
Duration : 58 min 40 s
Bit rate : 3 353 kb/s
Width : 1 920 pixels
Height : 1 080 pixels
Display aspect ratio : 16:9
Frame rate mode : Constant
Frame rate : 23.976 (24000/1001) FPS
Color space : YUV
Chroma subsampling : 4:2:0
Bit depth : 10 bits
Bits/(Pixel*Frame) : 0.067
Stream size : 1.37 GiB (84%)
Writing library : x265 2.5+66-dae558b40d99:[Windows][GCC 7.2.0][64 bit] 10bit
Encoding settings : cpuid=1173503 / frame-threads=3 / numa-pools=8 / wpp / no-pmode / no-pme / no-psnr / no-ssim / log-level=2 / input-csp=1 / input-res=1920x1080 / interlace=0 / total-frames=84400 / level-idc=0 / high-tier=1 / uhd-bd=0 / ref=4 / no-allow-non-conformance / no-repeat-headers / annexb / no-aud / no-hrd / info / hash=0 / no-temporal-layers / open-gop / min-keyint=23 / keyint=250 / bframes=4 / b-adapt=2 / b-pyramid / bframe-bias=0 / rc-lookahead=25 / lookahead-slices=4 / scenecut=40 / no-intra-refresh / ctu=64 / min-cu-size=8 / rect / no-amp / max-tu-size=32 / tu-inter-depth=1 / tu-intra-depth=1 / limit-tu=0 / rdoq-level=2 / dynamic-rd=0.00 / no-ssim-rd / signhide / no-tskip / nr-intra=0 / nr-inter=0 / no-constrained-intra / strong-intra-smoothing / max-merge=3 / limit-refs=3 / limit-modes / me=3 / subme=3 / merange=57 / temporal-mvp / weightp / no-weightb / no-analyze-src-pics / deblock=0:0 / sao / no-sao-non-deblock / rd=4 / no-early-skip / rskip / no-fast-intra / no-tskip-fast / no-cu-lossless / no-b-intra / no-splitrd-skip / rdpenalty=0 / psy-rd=2.00 / psy-rdoq=1.00 / no-rd-refine / analysis-reuse-mode=0 / no-lossless / cbqpoffs=0 / crqpoffs=0 / rc=abr / bitrate=3350 / qcomp=0.60 / qpstep=4 / stats-write=0 / stats-read=2 / cplxblur=20.0 / qblur=0.5 / ipratio=1.40 / pbratio=1.30 / aq-mode=3 / aq-strength=1.00 / cutree / zone-count=0 / no-strict-cbr / qg-size=32 / no-rc-grain / qpmax=69 / qpmin=0 / no-const-vbv / sar=0 / overscan=0 / videoformat=5 / range=0 / colorprim=2 / transfer=2 / colormatrix=2 / chromaloc=0 / display-window=0 / max-cll=0,0 / min-luma=0 / max-luma=1023 / log2-max-poc-lsb=8 / vui-timing-info / vui-hrd-info / slices=1 / no-opt-qp-pps / no-opt-ref-list-length-pps / no-multi-pass-opt-rps / scenecut-bias=0.05 / no-opt-cu-delta-qp / no-aq-motion / no-hdr / no-hdr-opt / no-dhdr10-opt / analysis-reuse-level=5 / scale-factor=0 / refine-intra=0 / refine-inter=0 / refine-mv=0 / no-limit-sao / ctu-info=0 / no-lowpass-dct / refine-mv-type=0 / copy-pic=1
Default : Yes
Forced : No

Audio #1
ID : 2
Format : AAC
Format/Info : Advanced Audio Codec
Format profile : LC
Codec ID : A_AAC
Duration : 58 min 40 s
Bit rate : 503 kb/s
Channel(s) : 8 channels
Channel positions : Front: L C R, Side: 4, LFE
Sampling rate : 48.0 kHz
Frame rate : 46.875 FPS (1024 spf)
Compression mode : Lossy
Delay relative to video : 20 ms
Stream size : 211 MiB (13%)
Language : English
Default : Yes
Forced : No

Audio #2
ID : 3
Format : AAC
Format/Info : Advanced Audio Codec
Format profile : HE-AAC / LC
Codec ID : A_AAC
Duration : 58 min 40 s
Bit rate : 66.2 kb/s
Channel(s) : 2 channels
Channel positions : Front: L R
Sampling rate : 48.0 kHz / 24.0 kHz
Frame rate : 23.438 FPS (1024 spf)
Compression mode : Lossy
Delay relative to video : 40 ms
Stream size : 27.8 MiB (2%)
Title : Commentary
Language : English
Default : No
Forced : No

Text #1
ID : 4
Format : VobSub
Muxing mode : zlib
Codec ID : S_VOBSUB
Codec ID/Info : Picture based subtitle format used on DVDs
Duration : 57 min 10 s
Bit rate : 9 892 b/s
Count of elements : 727
Stream size : 4.05 MiB (0%)
Language : English
Default : No
Forced : No

Text #2
ID : 5
Format : VobSub
Muxing mode : zlib
Codec ID : S_VOBSUB
Codec ID/Info : Picture based subtitle format used on DVDs
Duration : 56 min 47 s
Bit rate : 6 380 b/s
Count of elements : 648
Stream size : 2.59 MiB (0%)
Language : Danish
Default : No
Forced : No

Text #3
ID : 6
Format : VobSub
Muxing mode : zlib
Codec ID : S_VOBSUB
Codec ID/Info : Picture based subtitle format used on DVDs
Duration : 56 min 47 s
Bit rate : 8 247 b/s
Count of elements : 635
Stream size : 3.35 MiB (0%)
Language : Dutch
Default : No
Forced : No

Text #4
ID : 7
Format : VobSub
Muxing mode : zlib
Codec ID : S_VOBSUB
Codec ID/Info : Picture based subtitle format used on DVDs
Duration : 56 min 47 s
Bit rate : 7 532 b/s
Count of elements : 648
Stream size : 3.06 MiB (0%)
Language : Finnish
Default : No
Forced : No

Text #5
ID : 8
Format : VobSub
Muxing mode : zlib
Codec ID : S_VOBSUB
Codec ID/Info : Picture based subtitle format used on DVDs
Duration : 58 min 3 s
Bit rate : 7 345 b/s
Count of elements : 622
Stream size : 3.05 MiB (0%)
Language : French
Default : No
Forced : No

Text #6
ID : 9
Format : VobSub
Muxing mode : zlib
Codec ID : S_VOBSUB
Codec ID/Info : Picture based subtitle format used on DVDs
Duration : 56 min 47 s
Bit rate : 8 964 b/s
Count of elements : 528
Stream size : 3.64 MiB (0%)
Language : German
Default : No
Forced : No

Text #7
ID : 10
Format : VobSub
Muxing mode : zlib
Codec ID : S_VOBSUB
Codec ID/Info : Picture based subtitle format used on DVDs
Duration : 17 min 33 s
Bit rate : 608 b/s
Count of elements : 15
Stream size : 78.2 KiB (0%)
Title : Forced
Language : German
Default : No
Forced : No

Text #8
ID : 11
Format : VobSub
Muxing mode : zlib
Codec ID : S_VOBSUB
Codec ID/Info : Picture based subtitle format used on DVDs
Duration : 56 min 47 s
Bit rate : 8 026 b/s
Count of elements : 648
Stream size : 3.26 MiB (0%)
Language : Norwegian Bokmal
Default : No
Forced : No

Text #9
ID : 12
Format : VobSub
Muxing mode : zlib
Codec ID : S_VOBSUB
Codec ID/Info : Picture based subtitle format used on DVDs
Duration : 56 min 47 s
Bit rate : 8 865 b/s
Count of elements : 646
Stream size : 3.60 MiB (0%)
Language : Portuguese
Default : No
Forced : No

Text #10
ID : 13
Format : VobSub
Muxing mode : zlib
Codec ID : S_VOBSUB
Codec ID/Info : Picture based subtitle format used on DVDs
Duration : 56 min 47 s
Bit rate : 8 762 b/s
Count of elements : 647
Stream size : 3.56 MiB (0%)
Language : Spanish
Default : No
Forced : No

Text #11
ID : 14
Format : VobSub
Muxing mode : zlib
Codec ID : S_VOBSUB
Codec ID/Info : Picture based subtitle format used on DVDs
Duration : 56 min 47 s
Bit rate : 8 275 b/s
Count of elements : 648
Stream size : 3.36 MiB (0%)
Language : Swedish
Default : No
Forced : No

Menu
00:00:00.000 : en:Chapter 01
00:05:47.680 : en:Chapter 02
00:17:05.357 : en:Chapter 03
00:26:41.099 : en:Chapter 04
00:35:42.765 : en:Chapter 05
00:46:41.840 : en:Chapter 06
00:51:45.477 : en:Chapter 07
00:57:20.061 : en:Chapter 08


Source Information


Code:

Release : Game of Thrones S07 1080p EUR BluRay AVC Atmos TrueHD 7.1-ESiR
Complete name : Game of Thrones S07E01 Dragonstone.mkv
File size : 10.6 GiB
Duration : 58 min 40 s
Overall bit rate mode : Variable
Overall bit rate : 25.8 Mb/s

Complete name : Game of Thrones S07E02 Stormborn.mkv
File size : 10.6 GiB
Duration : 58 min 5 s
Overall bit rate mode : Variable
Overall bit rate : 26.0 Mb/s

Complete name : Game of Thrones S07E03 The Queen's Justice.mkv
File size : 11.2 GiB
Duration : 1 h 2 min
Overall bit rate mode : Variable
Overall bit rate : 25.7 Mb/s

Complete name : Game of Thrones S07E04 The Spoils of War.mkv
File size : 9.63 GiB
Duration : 49 min 25 s
Overall bit rate mode : Variable
Overall bit rate : 27.9 Mb/s

Complete name : Game of Thrones S07E05 Eastwatch.mkv
File size : 11.2 GiB
Duration : 58 min 30 s
Overall bit rate mode : Variable
Overall bit rate : 27.4 Mb/s

Complete name : Game of Thrones S07E06 Beyond the Wall.mkv
File size : 13.4 GiB
Duration : 1 h 10 min
Overall bit rate mode : Variable
Overall bit rate : 27.3 Mb/s

Complete name : Game of Thrones S07E07 The Dragon and the Wolf.mkv
File size : 17.6 GiB
Duration : 1 h 19 min
Overall bit rate mode : Variable
Overall bit rate : 31.5 Mb/s




Download Game of Thrones 2011 Season 7 S07 (1080p Bluray x265 HEVC 10bit AAC 7.1 Tigole) [UTR] torrent


Related Torrents


Comments   (please login to add your comment!)


Home - Browse Torrents

Made with love by an Extratorrent Fan!