extratorrent - A Fan Made Alternative Login   |   Register
Important Information
Registrations are open now
-------------------------------------

Please click here to register with Extratorrent2 to recieve latest updates, add bookmarks and to post comments.

Friends
Friends

1) ProxyFix

Extratorrent2 > Categories > TV > The.Flash.2014.4x11.L.Uomo.Allungabile.ITA.ENG.1080p.AMZN.WEB-DLMux.H.264-Morpheus.mkv torrent


Browse TV torrents

The.Flash.2014.4x11.L.Uomo.Allungabile.ITA.ENG.1080p.AMZN.WEB-DLMux.H.264-Morpheus.mkv torrent


Download torrent: Download The.Flash.2014.4x11.L.Uomo.Allungabile.ITA.ENG.1080p.AMZN.WEB-DLMux.H.264-Morpheus.mkv torrent Magnet link Bookmark Torrent: The.Flash.2014.4x11.L.Uomo.Allungabile.ITA.ENG.1080p.AMZN.WEB-DLMux.H.264-Morpheus.mkv   The.Flash.2014.4x11.L.Uomo.Allungabile.ITA.ENG.1080p.AMZN.WEB-DLMux.H.264-Morpheus.mkv torrent
Info hash: D1249AA7E1C32D1F6629A5B095D3F28B814CEB09
Category: Categories > TV
Trackers:
View all torrent trackers >
Health:
 seeds: 13 ,  leechers: 10 |  Update >
Torrent language: English English
Total Size: 3.8 GB
Files List:
1    View torrent files >
Uploader:
ppb1
Torrent added: May 28, 2018, 6:22 am
Users rating: ---, not rated. please login to rate.

Download The.Flash.2014.4x11.L.Uomo.Allungabile.ITA.ENG.1080p.AMZN.WEB-DLMux.H.264-Morpheus.mkv torrent



Torrent Description



GIUSEPPEiCV & LITTLELINX
HANNO IL PIACERE DI PRESENTARE


STAGIONE 4
WEB-DLMUX 1080p
Dual Language ITA - ENG
Sub ITA - ENG




.: Dati Serie :.

Nazione : Stati Uniti d'America
Anno : 2014 – in produzione
Genere : Azione, avventura, drammatico
Stagione : 4
Episodi : 23
Durata : 45 min circa
Lingua : ITA - ENG
Cast :
• Grant Gustin: Barry Allen / Flash
• Candice Patton: Iris West
• Danielle Panabaker: Caitlin Snow / Killer Frost
• Rick Cosnett: Eddie Thawne
• Carlos Valdes: Cisco Ramon / Vibe
• Thomas Cavanagh: Harrison Wells
• Jesse L. Martin: Joe West
• Keiynan Lonsdale: Wally West / Kid Flash
• Neil Sandilands,Kendrick Sampson: Clifford DeVoe / Pensatore


.: Trama  :.

After being struck by lightning, Barry Allen wakes up from his coma to discover he's been given the power of super speed, becoming the Flash, fighting crime in Central City.

Nel season finale della precedente stagione Barry Allen (Grant Gustin) si è sacrificato al posto di Jay Garrick, recandosi all'interno della Forza della Velocità e auto-esiliandosi in un limbo metafisico all’interno della stessa. La Forza della Velocità è di fatto una prigione dalla quale è difficilissimo, se non impossibile, fuggire: per questo l’addio a Iris (Candice Patton) sembra quasi definitivo, proprio quando i due avevano deciso di sposarsi.

Sono passati sei mesi da quando Barry è entrato nella Forza della velocità. Iris, Wally, Cisco e Joe continuano a proteggere la città e combattere i metaumani a Central City, senza avere però grandi risultati.
Dopo l'attacco di un samurai robot, il team flash cerca di riportare Barry a casa. Cisco riesce ad aprire un varco con l'aiuto di Caitlin e a stabilizzare la forza della velocità; ma Barry, una volta tornato, non è più lo stesso: la sua psiche è stata alterata dalla lunga prigionia interdimensionale, dove i concetti di spazio e tempo sono ben diversi da quelli terrestri.

I villains principali di questa stagione saranno Clifford DeVoe, alias Il Pensatore (Neil Sandilands) e la perfida Blacksmith (Katee Sackhoff), il capo di un mercato nero illegale destinato ai supercattivi.
Un altro personaggio dell'Universo DC che incontreremo nel corso delle puntate sarà Elongated Man, che diversamente dal fumetto è un brillante investigatore privato, interpretato da Hartley Sawyer.


.: Screenshot :.



.: Caratteristiche Tecniche :.
[spoiler]

The.Flash.2014.4x01.La.Rinascita.Di.Flash.ITA.ENG.1080p.AMZN.WEB-DLMux.H.264-Morpheus.mkv
Format                                   : Matroska
Format version                           : Version 4 / Version 2
File size                                : 3.51 GiB
Duration                                 : 40mn 37s
Overall bit rate mode                    : Variable
Overall bit rate                         : 12.4 Mbps
Encoded date                             : UTC 2018-02-06 21:39:43
Writing application                      : mkvmerge v7.6.0 ('Garden of Dreams') 64bit built on Feb  8 2015 15:12:28
Writing library                          : libebml v1.3.1 + libmatroska v1.4.2
DURATION                                 : 00:40:37.568000000
NUMBER_OF_FRAMES                         : 76174
NUMBER_OF_BYTES                          : 117003264
_STATISTICS_WRITING_APP                  : mkvmerge v7.6.0 ('Garden of Dreams') 64bit built on Feb  8 2015 15:12:28
_STATISTICS_WRITING_DATE_UTC             : 2018-02-06 21:39:43
_STATISTICS_TAGS                         : BPS DURATION NUMBER_OF_FRAMES NUMBER_OF_BYTES

Video
ID                                       : 1
Format                                   : AVC
Format/Info                              : Advanced Video Codec
Format profile                           :
Format settings, CABAC                   : Yes
Format settings, ReFrames                : 4 frames
Codec ID                                 : V_MPEG4/ISO/AVC
Duration                                 : 40mn 37s
Bit rate mode                            : Variable
Bit rate                                 : 11.6 Mbps
Maximum bit rate                         : 15.0 Mbps
Width                                    : 1 920 pixels
Height                                   : 1 080 pixels
Display aspect ratio                     : 16:9
Frame rate                               : 25.000 fps
Original frame rate                      : 23.976 fps
Color space                              : YUV
Chroma subsampling                       : 4:2:0
Bit depth                                : 8 bits
Scan type                                : Progressive
Bits/(Pixel*Frame)                       : 0.223
Stream size                              : 3.28 GiB (93%)
Default                                  : Yes
Forced                                   : No
Color primaries                          : BT.709-5, BT.1361, IEC 61966-2-4, SMPTE RP177
Transfer characteristics                 : BT.709-5, BT.1361
Matrix coefficients                      : BT.709-5, BT.1361, IEC 61966-2-4 709, SMPTE RP177

Audio #1
ID                                       : 2
Format                                   : AC-3
Format/Info                              : Audio Coding 3
Mode extension                           : CM (complete main)
Codec ID                                 : A_AC3
Duration                                 : 40mn 37s
Bit rate mode                            : Constant
Bit rate                                 : 192 Kbps
Channel(s)                               : 2 channels
Channel positions                        : Front: L R
Sampling rate                            : 48.0 KHz
Bit depth                                : 16 bits
Compression mode                         : Lossy
Stream size                              : 55.8 MiB (2%)
Title                                    : ITA
Language                                 : Italian
Default                                  : Yes
Forced                                   : Yes

Audio #2
ID                                       : 3
Format                                   : AC-3
Format/Info                              : Audio Coding 3
Mode extension                           : CM (complete main)
Codec ID                                 : A_AC3
Duration                                 : 40mn 37s
Bit rate mode                            : Constant
Bit rate                                 : 384 Kbps
Channel(s)                               : 6 channels
Channel positions                        : Front: L C R, Side: L R, LFE
Sampling rate                            : 48.0 KHz
Bit depth                                : 16 bits
Compression mode                         : Lossy
Stream size                              : 112 MiB (3%)
Title                                    : ENG
Language                                 : English
Default                                  : No
Forced                                   : No

Text #1
ID                                       : 4
Format                                   : UTF-8
Codec ID                                 : S_TEXT/UTF8
Codec ID/Info                            : UTF-8 Plain Text
Title                                    : ITA - Forced
Language                                 : Italian
Default                                  : Yes
Forced                                   : Yes

Text #2
ID                                       : 5
Format                                   : UTF-8
Codec ID                                 : S_TEXT/UTF8
Codec ID/Info                            : UTF-8 Plain Text
Language                                 : Italian
Default                                  : No
Forced                                   : No

Text #3
ID                                       : 6
Format                                   : UTF-8
Codec ID                                 : S_TEXT/UTF8
Codec ID/Info                            : UTF-8 Plain Text
Language                                 : English
Default                                  : No
Forced                                   : No


[/spoiler]

.: Ringraziamenti :.




RESTATE IN SEED ALTRIMENTI

 



Download The.Flash.2014.4x11.L.Uomo.Allungabile.ITA.ENG.1080p.AMZN.WEB-DLMux.H.264-Morpheus.mkv torrent


Related Torrents


Comments   (please login to add your comment!)

busty     x a     white collar season 6     five foot two     marduk     12 monkeys s02e12     the complete bitcoin course     raazi     novarip ita     cpp     summer samson     dpfanatics matilde ramos     lust wives     kavita krishnamurthy     v24     damage     mountain crush private     trying     tight chest     the four of the apocalypse     even     bbwsandwich     moses     mahan     


Home - Browse Torrents

Made with love by an Extratorrent Fan!